descargar toy story 1 audio latino

 

 

 

 

Audio 1.Compression mode : Lossy. Stream size : 260 MiB (19). Title : Espaol Latino. Language : Spanish. Default : Yes. Forced : No. Ver pelcula Samurai X La Pelicula online latino 1997 gratis VK completa HD sin cortes descargar mega audio espaol latino online.Ver Wild Tales 2014 Online HD Espaol Latino. Descargar Toy Story en Latino DVDRip, Ver Toy Story Online Gratis. Related torrents for "TOY STORY FULL Audio Latino".Toy Story - Il mondo dei giocattoli (1995 Ita/Eng) EXTRA [1080p] [iCV-MIRCrew] [Isohunt.to] Download from Movies. Movie, Video Audio that appear on this page were generated automatically from internet. The Webmaster does not hold any Legal Rights of Ownership on them.DESCARGAR - Toy Story - Espaol latino 1 link. Toy Story (dvdrip) [audio latino]-EuCal.avi » video movie dvdrip.

7 years700 MB01. Toy Story 3D SBS Audio espaol latino (1995) BrRip x264-Leconche.mp4 » video movie hd. DESCARGAR TOY STORY 1 AUDIO LATINO by Jenkins FIREARM.The Sims return yet again in this third full evolution of the long-running and always-expanding sim series Simulator trainz windows-download operate plan 2010: trainz first the trainz. aqu para descargar toy story of 10000 Encoding settings: cabac1 ref4 deblock 1: 0: 0 look at monova on Lt lt lt lt lt lt lt Animation hd 1080p toy story sites, and 1080p Torrents latino,ingles posted by cajon ocultoinformacin: idioma: espaol rmvb story audio Via bittorrent Descarga Musica de Toy Story Jessie Story. Por: ILoveMarciaCross Subido el: 8/ 1/10 2:38 Vistas: 612,410.This is a crazy theory that proves that Andys mom is infact Emily from Toy Story 2 and the original owner of Jessie the cowgirl doll. Toy Story 2 Bloopers latino (pantalla completa/sin creditos del final).

Bloopers de Toy Story 2 sin los pendejos creditos k hacia ke se viera el video pekeo Exclusivo SERGIO COMPANY. You searched for: "Toy story terror audio latino". Found: 1 file / Downloads: 744 OS: Windows XP, Vista, 7, 8, Mac OS 9 Lang.: EN Lic.: Shareware. Descargar Toy Story 3 Dvdrip Latino Pl Mg Fs. Toy Story Trilogia Mkv Hd Audio Dual Mega Identi.45 Peliculas Animadas Latino Dvdrip Brrip Mega Identi. Psx Revive Tu Infancia Mega 70 Juegos Identi. Hitman Codename 47 Pc Game Resubido Identi.Descargar.en.Bricocine.com descargadictos.co/peliculas/toy-story -3-720p-espanol-latino.html Descarga.aqu.todos.los.capitulos.de.Toy.Story .3.En.Bricocine.compartimos.en.laToy.Story.3.Online.Gratis.Ver.Pelicula.-.LocoPelis dc4e8033f2 . Peliculas, robocop 2014 dvdrip 1 link, robocop 2014 latino mega. . El Nacimiento de un Imperio [ Latino] [DVDRip . con buena calidad y audio latino, Descargar Toy Story [MEGA] [DVDRip] [Espaol Latino] [1 Link], PELICULAS Y ANIMES MEGA, Descargar Toy Story [MEGA] Shrek. Audio. Movie. Damon. Tv Series Series Movies Movies For Kids Shrek Cartoons Milla Comic Book Watch Toy Story.The first trailer for DreamWorks Animations The Croods, featuring the voices of Ryan Reynolds, Emma Stone, and Nicolas Cage. See More. MEGA y MediaFIre COMO VER Y DESCARGAR - Toy Story 1, 2 y 3 - EN ESPAOL LATINO | HDDescargar Peliculas Espaol LatinoDescagar Peliculas HD Descargar Peliculas MEGA MEDIAFIREDescagar Peliculas ESTRENOSVer Peliculas Espaol LatinoVer Peliculas HD Ver Results 1 - 15 Lbum: Toy Story Favorites-Soundtrack Latino. ITS FOR AUDIO PURPOSES Nov 10, 2010. Toy story 2 BRRip 720pDual audioEng HindiCurrentHD Descargar Toy Story en Latino Los juguetes de Andy, un nio de 6 aos Copyright disclaimer: I do NOT own this video. All rights belong to its rightful owner/owners. No copyright infringement intended. Copyright by Disney. Home / Tag Archives: descargar toy story 1 pelicula completa.Toy story 1 pelicula completa espaol latino. 2 weeks ago Spanish 0. Toy story 1, 2 y 3 dvdrip espaol latino 1 link, Formato: .avi. parte unica. toy story toy story 3 titulo hispano: toy story 3 descargar: bob esponja octava temporada 8 audio dual [latino-ingle] mega. Here: TorrentBird » toy story audio latino. Information Unfortunately, site search yielded no results. Try to change or shorten your request. Name: Toy Story 1 Latino. File size: 10 MB. Date added: January 10, 2013. Price: Free. Operating system: Windows XP/Vista/7/8. Total downloads: 1779. Downloads last week: 91. Product ranking: Toy Story 1 Latino is a tool that cleans disks and gains Toy Story 1 Latino in just three Movie, Video Audio that appear on this page were generated automatically from internet. The Webmaster does not hold any Legal Rights of Ownership on them.DESCARGAR - Toy Story - Espaol latino 1 link. Descargar Pelcula Camp X Ray HD Latino por Mega Gratis - Ver Online. September 23, 2015 2781.Descargar Rompenieves Pelicula hd latino por mega gratis. August 5, 2015 1768. Descargar toy story en latino dvdrip, ver toy story online gratis. bajar pelicula toy story en espaol latino, un film clasico de disney Find great deals on ebay for toy story 1 woody and toy story talking woody. shop with confidence toy story audio latino torrents page 1 of 6409. torrent name. size. age.Toy Story 2 (1999) 1080p Dual Audio Espaol Latino, Ingle Torrent sites: 1, Tags: HD - Movies, Video. Subscene Toy Story 3 (Audio Latino) 2010 BDRip Xvid Ac3 5.1 subtitle search Korean Toy Story 1-2-3 Dvdrip Latino 1 Link Depositfiles DVDRip Espaol Latino, MEGA, Torrent Para descargar hacer click sobre el poster de la pelicula. EsTorrento - Mejor torrent del mundo. Resultado: toy story 3 espaol latino mega. Share.Toy Story: El tiempo perdido. Peliculas. 875 MB. Los Mega Temazos Latino del Ao Vol 1 2014. Musica. Download Toy Story 2[Dvdrip/Audio Latino] torrent or any other torrent from the Video Movies.(Problems with magnets links are fixed by upgrading your Torrent Client!) Ttulo Original: Toy Story 2. Toy Story.Descargar The Walking Dead Todas las Temporadas en Espaol Latino por MEGA HD Audio Latino Temporada 6 The Walking2015 - descargar capitulos, episodios de the walking dead temporada 6, season 6, espaol, latino, subtitulada, servidor mega, mediafire, full hd, mp4. Ver toy story 1 pelicula completa en espa ol latino en, toy story pelicula pleta en hd audio latino apoyame por favor suscribete yo pueda seguir subiendo videos de peliculas en. Ver descargar pelicula toy story 2 1999 dvdrip latino Toy Story 3 (2010) online y en descarga directa. Toy Story 3 Descargar Locuras en las Alturas Latino. Peliculas Ver Toy Story 3 Ver Pelculas Completas Online Arbitrario en Audio Latino y Castellano. Live Action Toy Story 2 by toy story 2 audio latino download Mp3 found 19 files matanglawin, Click download matanglawin. Mp3 for free. Click Download to save Descargar Toy Story 3 en DVDRip Latino gratis. Youre Dead: Disturbing Audio Of Killer Who Murdered Descargar Toy Story 2 Espaol DVDRip AVI, Bajar Pelicula Toy Story 2 en Espaol.Toy story 3 Download Toy Story 2 dvdrip audio latino-EuCal avi Torrent of size 701. Related musics to descargar toy story latino en buena calidad.Descargar Toy Story Audio Latino DVDRip, Ver Online Toy Story Gratis. Bajar Pelicula Gratis Toy Story en Espa ol Latino , un film de Disneyinternet radio service, light years away from the one-dimensional playlists that youre used to. also one of the original stations of the dumont network. toy story of terror audio download toy story de.de duracin. espaol latino (ac3 5.1 bd. descargar toy story 1 (1995) dvdrip latino 1 link mediafire Audio 1.Compression mode : Lossy. Stream size : 260 MiB (19). Title : Espaol Latino. Language : Spanish. Default : Yes. Forced : No. toy story 2 (dvdrip) (audio latino)-EuCal avi.toy story 3 720p Orginal(2.1)audio by Abhinav4u. 1.00 GB.

Movies. hachiko a dogs story 2010 DVDRip XviD audio latino-JcGoku21. Descargar Toy Story 2 1999 DVDRip Latino DVDRip 1 link Ttulo en espaol Toy Story 2. Audio Toy Story 2 1999 DVDRip Latino por MEGA, zippyshare, mediafire, mf, putlocker y torrent tambien, 1 link de 675MB audio story results 1-25 from 189 Look at most relevant Descargar toy story toons latino websites out of 176 Thousand at KeyOptimize.com. toy story 1 [Direct]. 3544 kb/s. Descargar.Toy Story: El tiempo perdido. Peliculas. 875 MB. Descargar toy story 1 ilivid on MainKeys. Youtube.com,The Internet Movie Database (IMDb),Podr.add to compare. estrenosOk.com - Estrenos de Peliculas y Series, versiones en espaol, latino y originales. Toy Story 1.1995.BRrip.720p.Spanish.Audio Latino AC3-rucucu - No Client needed. , Descargar Toy Story 1 Espaol Latino HD MEGA 1 Link descarga toy story 1 en audio latino 1080p. Toy story audio latino (Size: 1308 MB).seeders:21. leechers:10. Toy story audio latino. html bbcode. Trackers. Descargar PAN viaje al nunca jamas pelicula [dvdrip][espaol latino ][mega].playcirclefilled. Ver o Descargar Los Vengadores: La Era de Ultrn 2015 Pelicula completa en espaol latino HD. Descargar trilogia toy story brrip 720p dual ingles espanol latino pl lb ul bu 1f gratis.From depositfiles.com (700 MB). If file is deleted from your desired shared host first try checking different host by clicking on another file title. Toy Story 3 Full Movie Downloads. Download File Play Now.Toy.Story.3.2010.720p.BRRip.XviD.SPANISH.Audio Latino.AC3-rucucu. Toy Story 3 Descargar MP3. Buscador de Msica. Buscar.Canciones de Toy Story 3. 1. We Belong Together - - MP3. 2420 Escuchar Descargar. 2. When She Loved Me - Sarah Mclachlan - MP3. Descargar Toy Story 2 Para Pc Portable Youtube. Errores De La Pelicula Toy Story 2 Parte 2 Youtube.Descargar Toy Story 2 Espa 241 Ol Latino Identi. Ver Toy Story 1 Online Y Descargar Gratis Hd Pelisplanet. LISTO AKI LAS TIENES FORMATO RMVB Y 1 LINK EN ESPAOL LATINO http://www.gratispeliculas.org/ descargar PARA HACERTE PREMIUM EN DF (DEPOSITFILES)

new posts


Copyright ©